<?xml version="1.0" standalone="no"?>
<!DOCTYPE svg PUBLIC "-//W3C//DTD SVG 1.1//EN" "http://www.w3.org/Graphics/SVG/1.1/DTD/svg11.dtd" >
<svg xmlns="http://www.w3.org/2000/svg">
<defs>
  <font id="IconFont2" horiz-adv-x="2742.857142857143">
    <font-face font-family="IconFont2"
      units-per-em="1600" ascent="1600"
      descent="0" />
    <missing-glyph horiz-adv-x="0" />
    <glyph glyph-name="arrow-s-left"
      unicode="&#xE001;"
      horiz-adv-x="1200" d="M0.0000047699533 800L1199.9999952300466 1492.8202666666666L1199.9999952300466 107.1733333333334L0.0000047699533 800z" />
    <glyph glyph-name="arrow-s-right"
      unicode="&#xE002;"
      horiz-adv-x="1200" d="M1200.0000326266 800L-0.0000326266 107.1733333333334L0.0000279416266 1492.8204L1200.0000326266 800z" />
    <glyph glyph-name="bell"
      unicode="&#xE003;"
      horiz-adv-x="1280" d="M0 240V360H168V972C168 1084 201 1183.6664 267 1271C333 1358.3336 420 1413.3336 528 1436V1494C528 1524.66664 539 1550 561 1570C583 1590 609.3336 1600 640 1600C670.6664000000001 1600 697 1590 719 1570C741 1550 752 1524.66664 752 1494V1436C860 1413.3336 947.336 1358.3336 1014 1271C1080.664 1183.6664 1114 1084 1114 972V360H1280V240H0zM640 0C597.3335999999999 0 560 15.6639999999998 528 47C496 78.3359999999998 480 116 480 160H800C800 116 784.3335999999999 78.3359999999998 753 47C721.6664000000001 15.6639999999998 684 0 640 0z" />
    <glyph glyph-name="block"
      unicode="&#xE004;"
      horiz-adv-x="1600.0000000000002" d="M799.0908363636365 47.2727272727273C694.8486545454547 47.2727272727273 596.9701090909091 66.9672727272728 505.4544727272727 106.3636363636363C413.9395636363637 145.7600000000002 334.2428363636364 199.6945454545455 266.3635636363637 268.1818181818183C198.4850181818182 336.669090909091 144.8486545454545 416.669090909091 105.4544727272727 508.1818181818185C66.0607272727273 599.6945454545455 46.3637090909091 697.578181818182 46.3637090909091 801.818181818182C46.3637090909091 904.8487272727276 66.0607272727273 1002.1214545454548 105.4544727272727 1093.6363636363637C144.8486545454545 1185.151272727273 198.4850181818182 1264.8487272727275 266.3635636363637 1332.727272727273C334.2428363636364 1400.6058181818184 413.9395636363637 1454.5454545454547 505.4544727272727 1494.5454545454547C596.9701090909091 1534.5454545454547 694.8486545454547 1554.5454545454547 799.0908363636365 1554.5454545454547C903.3308363636364 1554.5454545454547 1001.2144727272728 1534.5454545454547 1092.7272 1494.5454545454547C1184.2399272727273 1454.5454545454547 1263.9417454545455 1400.6058181818184 1331.818109090909 1332.727272727273C1399.6944727272728 1264.8487272727275 1453.636290909091 1185.151272727273 1493.636290909091 1093.6363636363637C1533.636290909091 1002.1214545454548 1553.636290909091 904.8487272727276 1553.636290909091 801.818181818182C1553.636290909091 697.578181818182 1533.9417454545455 599.3963636363637 1494.5453818181818 507.2727272727275C1455.1490181818183 415.1490909090913 1401.2144727272728 335.149090909091 1332.7272 267.2727272727275C1264.2399272727275 199.396363636364 1184.2399272727273 145.7600000000002 1092.7272 106.3636363636363C1001.2144727272728 66.9672727272728 903.3308363636364 47.2727272727273 799.0908363636365 47.2727272727273zM799.0908363636365 190.909090909091C968.785381818182 190.909090909091 1112.7272 250 1230.9090181818183 368.1818181818183C1349.0908363636365 486.3636363636365 1408.1817454545455 630.9090909090911 1408.1817454545455 801.818181818182C1408.1817454545455 870.909090909091 1396.6690181818183 937.8785454545456 1373.6362909090908 1002.7272727272727C1350.6035636363638 1067.576 1317.8762909090908 1126.0603636363637 1275.4544727272728 1178.1818181818185L420.9090181818183 325.4545454545457C473.0304727272728 280.6036363636365 531.8181090909092 246.967272727273 597.2726545454547 224.5454545454545C662.7272000000002 202.1236363636365 729.9999272727273 190.909090909091 799.0908363636365 190.909090909091zM324.5453818181819 423.6363636363638L1175.4544727272728 1276.3636363636365C1122.1235636363635 1320.0000000000002 1063.3308363636363 1353.0305454545457 999.0908363636366 1375.4545454545457C934.8508363636366 1397.8785454545457 868.1817454545455 1409.0909090909092 799.0908363636365 1409.0909090909092C629.3941090909092 1409.0909090909092 485.4544727272728 1350.303272727273 367.2726545454546 1232.727272727273C249.0908363636364 1115.151272727273 189.9999272727273 971.5149090909094 189.9999272727273 801.818181818182C189.9999272727273 732.7272727272729 202.1213818181818 665.7600000000001 226.3635636363637 600.909090909091C250.6064727272728 536.058181818182 283.3337454545455 476.9672727272728 324.5453818181819 423.6363636363638z" />
    <glyph glyph-name="chevron-down"
      unicode="&#xE005;"
      horiz-adv-x="2742.857142857143" d="M1371.4285714285716 0L0 1356.8914285714286L245.7142857142857 1600L1371.4285714285716 480.5645714285715L2497.1428571428573 1594.3463771428571L2742.857142857143 1351.2365714285713L1371.4285714285716 0z" />
    <glyph glyph-name="chevron-left"
      unicode="&#xE006;"
      horiz-adv-x="1000" d="M129.21875 870.625C90.15625 831.5625 90.15625 768.125 129.21875 729.0625L729.21875 129.0625C768.28125 90 831.71875 90 870.78125 129.0625S909.84375 231.5625 870.78125 270.625L341.40625 800L870.46875 1329.375C909.5312500000002 1368.4375 909.5312500000002 1431.875 870.46875 1470.9375S767.96875 1510 728.90625 1470.9375L128.90625 870.9375z" />
    <glyph glyph-name="chevron-up"
      unicode="&#xE007;"
      horiz-adv-x="1600" d="M729.375 1270.625C768.4375 1309.6875 831.875 1309.6875 870.9375 1270.625L1470.9375 670.6250000000001C1510 631.5625000000001 1510 568.125 1470.9375 529.0625S1368.4375 490 1329.375 529.0625L800 1058.4375L270.625 529.375C231.5625 490.3125 168.125 490.3125 129.0625 529.375S90 631.875 129.0625 670.9375L729.0625 1270.9375z" />
    <glyph glyph-name="close"
      unicode="&#xE008;"
      horiz-adv-x="1600" d="M1386.40625 390.3125L976.40625 801.875L1387.34375 1208.125C1404.21875 1225 1404.21875 1252.5 1387.34375 1269.375L1270.46875 1386.875C1262.34375 1395 1251.40625 1399.375 1239.84375 1399.375C1228.28125 1399.375 1217.34375 1394.6875 1209.21875 1386.875L800.1562500000001 981.875L390.4687500000001 1386.5625C382.3437500000002 1394.6875 371.4062500000002 1399.0625 359.8437500000001 1399.0625C348.2812500000001 1399.0625 337.3437500000001 1394.375 329.2187500000002 1386.5625L212.6562500000001 1269.0625C195.7812500000001 1252.1875 195.7812500000001 1224.6875 212.6562500000001 1207.8125L623.5937500000001 801.5625L213.9062500000002 390.3125C205.7812500000002 382.1874999999998 201.0937500000002 371.2499999999998 201.0937500000002 359.6875C201.0937500000002 348.125 205.4687500000002 337.1875 213.9062500000002 329.0624999999998L330.7812500000002 211.5624999999998C339.2187500000002 203.1249999999998 350.1562500000002 198.7499999999998 361.4062500000001 198.7499999999998C372.3437500000001 198.7499999999998 383.5937500000001 202.8124999999998 392.0312500000001 211.5624999999998L800.1562500000001 621.5624999999999L1208.59375 211.8749999999998C1217.03125 203.4375 1227.96875 199.0624999999998 1239.21875 199.0624999999998C1250.15625 199.0624999999998 1261.40625 203.1249999999998 1269.84375 211.8749999999998L1386.71875 329.375C1394.84375 337.5 1399.53125 348.4375 1399.53125 360C1399.21875 371.25 1394.53125 382.1875 1386.40625 390.3125z" />
    <glyph glyph-name="comment"
      unicode="&#xE009;"
      horiz-adv-x="1694.1176470588236" d="M1619.058823529412 364.5270588235294H327.028705882353L0 64.705882352941V1527.6292705882354C0 1568.984 32.1667764705882 1600 75.0558117647059 1600H1619.058823529412C1661.948235294118 1600 1694.1176470588236 1568.984 1694.1176470588236 1527.6292705882354V442.0705882352941C1694.1176470588236 400.7152941176471 1661.948235294118 364.5270588235294 1619.058823529412 364.5270588235294z" />
    <glyph glyph-name="envelope-filled"
      unicode="&#xE00A;"
      horiz-adv-x="2000" d="M150 0C110 0 75 15 45 45C15 75 0 110 0 150V1450C0 1490 15 1525 45 1555C75 1585 110 1600 150 1600H1850C1889.9999999999995 1600 1925 1585 1955 1555C1985.0000000000005 1525 2000 1490 2000 1450V150C2000 110 1985.0000000000005 75 1955 45C1925 15 1889.9999999999995 0 1850 0H150zM1000 755.0000000000001L1850 1312.5V1450L1000 905L150 1450V1312.5L1000 755.0000000000001z" />
    <glyph glyph-name="envelope"
      unicode="&#xE00B;"
      horiz-adv-x="2021.0526315789475" d="M1831.5789473684213 1600C1936.1852631578947 1600 2021.0526315789475 1512.9557894736843 2021.0526315789475 1405.6682105263158C2021.0526315789475 1344.5347368421053 1993.0273684210529 1287.0442105263157 1945.263157894737 1250.2021052631578L1086.3157894736844 589.4736842105262C1041.3136842105264 555.0568421052631 979.7389473684212 555.0568421052631 934.7368421052632 589.4736842105262L75.7894736842105 1250.2021052631578C28.0263578947368 1287.0442105263157 0 1344.5347368421053 0 1405.6682105263158C0 1512.9557894736843 84.8682105263158 1600 189.4736842105263 1600H1831.5789473684213zM858.9473684210526 485.8273684210526C948.9515789473684 416.5978947368422 1072.101052631579 416.5978947368422 1162.1052631578948 485.8273684210526L2021.0526315789475 1146.5583157894737V304.4547368421052C2021.0526315789475 161.5410526315786 1907.7642105263155 45.3473684210524 1768.4210526315792 45.3473684210524H252.6315789473685C113.2892631578948 45.3473684210524 0 161.5410526315786 0 304.4547368421052V1146.5583157894737L858.9473684210526 485.8273684210526z" />
    <glyph glyph-name="eye"
      unicode="&#xE00C;"
      horiz-adv-x="2346.666666666667" d="M1173.3333333333335 346.6666666666665C1299.552 346.6666666666665 1406.6666666666667 390.6666666666665 1494.6666666666667 478.6666666666667C1582.6666666666667 566.6666666666665 1626.6666666666667 673.7781333333334 1626.6666666666667 800C1626.6666666666667 926.2218666666666 1582.6666666666667 1033.3333333333333 1494.6666666666667 1121.3333333333333C1406.6666666666667 1209.3333333333333 1299.552 1253.3333333333333 1173.3333333333335 1253.3333333333333C1047.1114666666667 1253.3333333333333 940 1209.3333333333333 852 1121.3333333333333C764 1033.3333333333333 720 926.2218666666666 720 800C720 673.7781333333334 764 566.6666666666665 852 478.6666666666667C940 390.6666666666665 1047.1114666666667 346.6666666666665 1173.3333333333335 346.6666666666665zM1173.3333333333335 501.3333333333333C1089.7813333333334 501.3333333333333 1019.1114666666666 530.2186666666666 961.3333333333331 587.9999999999999C903.5552 645.7781333333332 874.6666666666666 716.4448 874.6666666666666 800C874.6666666666666 883.5552 903.5552 954.2218666666666 961.3333333333331 1012C1019.1114666666666 1069.7781333333332 1089.7813333333334 1098.6666666666665 1173.3333333333335 1098.6666666666665C1256.8853333333334 1098.6666666666665 1327.5520000000001 1069.7781333333332 1385.3333333333335 1012C1443.1146666666666 954.2218666666666 1472.0000000000002 883.5552 1472.0000000000002 800C1472.0000000000002 716.4448 1443.1146666666666 645.7781333333332 1385.3333333333335 587.9999999999999C1327.5520000000001 530.2186666666666 1256.8853333333334 501.3333333333333 1173.3333333333335 501.3333333333333zM1173.3333333333335 0C913.7781333333334 0 679.1114666666667 73.7813333333334 469.3333333333334 221.3333333333333C259.5552 368.8853333333332 103.1111466666667 561.7781333333332 0 800C103.1111466666667 1038.2218666666668 259.5552 1231.1114666666667 469.3333333333334 1378.6666666666665C679.1114666666667 1526.2222933333333 913.7781333333334 1600 1173.3333333333335 1600C1432.8853333333334 1600 1667.5520000000001 1526.2222933333333 1877.3333333333337 1378.6666666666665C2087.114666666667 1231.1114666666667 2243.552 1038.2218666666668 2346.666666666667 800C2243.552 561.7781333333332 2087.114666666667 368.8853333333332 1877.3333333333337 221.3333333333333C1667.5520000000001 73.7813333333334 1432.8853333333334 0 1173.3333333333335 0zM1173.3333333333335 160C1388.448 160 1586.2186666666666 218.2186666666667 1766.6666666666667 334.6666666666665C1947.1146666666668 451.1146666666666 2084.448 606.2218666666666 2178.666666666667 800C2084.448 993.7781333333334 1947.1146666666668 1148.8885333333333 1766.6666666666667 1265.3333333333333C1586.2186666666666 1381.7781333333332 1388.448 1440 1173.3333333333335 1440C958.2218666666668 1440 760.4448000000001 1381.7781333333332 580 1265.3333333333333C399.5552 1148.8885333333333 261.3333333333334 993.7781333333334 165.3333333333334 800C261.3333333333334 606.2218666666666 399.5552 451.1146666666666 580 334.6666666666665C760.4448000000001 218.2186666666667 958.2218666666668 160 1173.3333333333335 160z" />
    <glyph glyph-name="facebook"
      unicode="&#xE00D;"
      horiz-adv-x="1600" d="M1575 800C1575 1228.1253333333334 1228.1266666666668 1575 800 1575C371.8746666666667 1575 25 1228.1253333333334 25 800C25 413.1866666666667 308.406 92.56 678.9066666666668 34.3733333333332V575.9666666666667H482.0313333333334V800H678.9066666666668V970.7499999999998C678.9066666666668 1164.9686666666666 794.5333333333333 1272.25 971.6266666666668 1272.25C1056.44 1272.25 1145.1266666666668 1257.1246666666666 1145.1266666666668 1257.1246666666666V1066.5H1047.3733333333334C951.1266666666666 1066.5 921.0933333333334 1006.75 921.0933333333334 945.4686666666666V800H1136.0333333333335L1101.6533333333334 575.9666666666667H921.0933333333334V34.3733333333332C1291.5933333333332 92.56 1575 413.1866666666667 1575 800z" />
    <glyph glyph-name="heart-filled"
      unicode="&#xE00E;"
      horiz-adv-x="1684.2105263157896" d="M842.1052631578948 2.1052631578946L755.7894736842105 79.9999999999998C607.0172631578948 216.1431578947368 484.2105263157895 333.6842105263159 387.3684210526316 432.6315789473684C290.5263157894737 531.578947368421 213.3330526315789 620 155.7894736842106 697.8947368421052C98.2458947368421 775.7903157894737 57.8947368421053 846.3166315789473 34.7368421052632 909.4745263157894C11.5789473684211 972.6324210526316 0 1036.491789473684 0 1101.0534736842105C0 1227.3692631578947 42.4561684210526 1332.9827368421052 127.3684210526316 1417.8955789473684C212.2804210526316 1502.8075789473685 317.1932631578948 1545.2636631578948 442.1052631578948 1545.2636631578948C522.1052631578948 1545.2636631578948 596.1406315789475 1526.316294736842 664.2105263157895 1488.4218947368422C732.2804210526317 1450.5271578947368 791.5789473684212 1395.7903157894737 842.1052631578948 1324.2113684210526C901.0526315789474 1400.0008421052632 963.5115789473685 1455.7903157894737 1029.4736842105265 1491.5797894736843C1095.4357894736843 1527.3689263157894 1166.3157894736842 1545.2636631578948 1242.1052631578948 1545.2636631578948C1367.0147368421053 1545.2636631578948 1471.9326315789474 1502.8075789473685 1556.8421052631581 1417.8955789473684C1641.7515789473684 1332.9827368421052 1684.2105263157896 1227.3692631578947 1684.2105263157896 1101.0534736842105C1684.2105263157896 1036.491789473684 1672.6315789473686 972.6324210526316 1649.4736842105262 909.4745263157894C1626.3157894736844 846.3166315789473 1585.962105263158 775.7903157894737 1528.421052631579 697.8947368421052C1470.88 620 1393.6842105263158 531.578947368421 1296.842105263158 432.6315789473684C1200 333.6842105263159 1077.1957894736843 216.1431578947368 928.421052631579 79.9999999999998L842.1052631578948 2.1052631578946z" />
    <glyph glyph-name="instagram"
      unicode="&#xE00F;"
      horiz-adv-x="1527.2727272727275" d="M763.8078263636363 1192.0436363636366C546.9889172727272 1192.0436363636366 372.1023718181818 1017.1570909090912 372.1023718181818 800.3418181818183C372.1023718181818 583.5200000000002 546.9889172727272 408.6327272727274 763.8078263636363 408.6327272727274C980.622371818182 408.6327272727274 1155.5096445454546 583.5200000000002 1155.5096445454546 800.3418181818183C1155.5096445454546 1017.1570909090912 980.622371818182 1192.0436363636366 763.8078263636363 1192.0436363636366zM763.8078263636363 545.6800000000001C623.6936445454545 545.6800000000001 509.1481899999999 659.8836363636365 509.1481899999999 800.3418181818183C509.1481899999999 940.7934545454546 623.3525536363636 1054.9985454545458 763.8078263636363 1054.9985454545458C904.2587354545454 1054.9985454545458 1018.4696445454546 940.7934545454546 1018.4696445454546 800.3418181818183C1018.4696445454546 659.8836363636365 903.92419 545.6800000000001 763.8078263636363 545.6800000000001zM1262.8987354545457 1208.066181818182C1262.8987354545457 1157.2712727272728 1221.9896445454547 1116.7025454545455 1171.531462727273 1116.7025454545455C1120.7387354545456 1116.7025454545455 1080.171462727273 1157.6116363636365 1080.171462727273 1208.066181818182C1080.171462727273 1258.5207272727275 1121.0805536363637 1299.4298181818185 1171.531462727273 1299.4298181818185C1221.9896445454547 1299.4298181818185 1262.8987354545457 1258.5207272727275 1262.8987354545457 1208.066181818182zM1522.331462727273 1115.3389090909093C1516.5350990909094 1237.7258181818183 1488.5787354545457 1346.1345454545456 1398.9205536363638 1435.453090909091C1309.60419 1524.7709090909093 1201.1969172727274 1552.7255272727275 1078.80419 1558.8618909090912C952.6732809090907 1566.0209454545457 574.6027354545454 1566.0209454545457 448.4660081818182 1558.8618909090912C326.4209172727273 1553.0664000000002 218.0114627272727 1525.1120000000003 128.3525536363636 1435.7934545454548C38.6932809090908 1346.4756363636366 11.0796809090908 1238.066181818182 4.9433099999999 1115.6800000000003C-2.215780909091 989.5440000000002 -2.215780909091 611.4763636363638 4.9433099999999 485.338181818182C10.7387354545454 362.9527272727276 38.6932809090908 254.5454545454548 128.3525536363636 165.2290909090909C218.0114627272727 75.9054545454546 326.0798263636364 47.9563636363639 448.4660081818182 41.8181818181818C574.6027354545454 34.6545454545455 952.6732809090907 34.6545454545455 1078.80419 41.8181818181818C1201.1969172727274 47.6145454545454 1309.60419 75.5636363636365 1398.9205536363638 165.2290909090909C1488.2369172727274 254.5454545454548 1516.1932809090913 362.9527272727276 1522.331462727273 485.338181818182C1529.4878263636367 611.4763636363638 1529.4878263636367 989.2029090909094 1522.331462727273 1115.3389090909093zM1359.3787354545457 350.0000000000003C1332.782371818182 283.1781818181819 1281.3060081818185 231.7018181818183 1214.1496445454547 204.7709090909093C1113.5823718181819 164.8872727272728 874.9423718181819 174.0872727272727 763.8078263636363 174.0872727272727C652.6703718181817 174.0872727272727 413.6936445454545 165.2290909090909 313.4660081818182 204.7709090909093C246.6478263636363 231.3600000000002 195.1707354545454 282.8363636363638 168.239099090909 350.0000000000003C128.3525536363636 450.5672727272729 137.5569172727272 689.2000000000002 137.5569172727272 800.3418181818183C137.5569172727272 911.4756363636366 128.6936445454545 1150.453090909091 168.239099090909 1250.6800000000003C194.8296445454545 1317.498181818182 246.3067354545454 1368.975272727273 313.4660081818182 1395.9076363636366C414.0340081818182 1435.7934545454548 652.6703718181817 1426.589090909091 763.8078263636363 1426.589090909091C874.9423718181819 1426.589090909091 1113.9241900000002 1435.453090909091 1214.1496445454547 1395.9076363636366C1280.9641900000001 1369.3163636363638 1332.4405536363638 1317.839272727273 1359.3787354545457 1250.6800000000003C1399.262371818182 1150.112 1390.0550990909094 911.4756363636366 1390.0550990909094 800.3418181818183C1390.0550990909094 689.2000000000002 1399.262371818182 450.2254545454546 1359.3787354545457 350.0000000000003z" />
    <glyph glyph-name="logout"
      unicode="&#xE010;"
      horiz-adv-x="1600" d="M198 52C155.3336 52 118.3336 67.664 87 99C55.66664 130.336 40 167.336 40 210V1390C40 1434 55.66664 1471.6664 87 1503C118.3336 1534.33336 155.3336 1550 198 1550H788V1390H198V210H788V52H198zM1174 410L1058 522L1258 720H576V880H1254L1054 1078L1170 1190L1560 798L1174 410z" />
    <glyph glyph-name="menu"
      unicode="&#xE011;"
      horiz-adv-x="2720" d="M0 1600H2720V1280H0V1600zM0 960H2720V640H0V960zM0 320H2720V0H0V320z" />
    <glyph glyph-name="post"
      unicode="&#xE012;"
      horiz-adv-x="1280" d="M318 340H962V460H318V340zM318 680H962V800H318V680zM120 0C88 0 60 12 36 36C12 60 0 88 0 120V1480C0 1512 12 1540 36 1564C60 1588 88 1600 120 1600H842L1280 1162V120C1280 88 1268 60 1244 36C1220 12 1192 0 1160 0H120zM782 1108H1160L782 1480V1108z" />
    <glyph glyph-name="settings"
      unicode="&#xE013;"
      horiz-adv-x="1600" d="M616 0L576 252C550.6664 261.336 524 274 496 290C468 306 443.3336 322.664 422 340L186 232L0 560L216 718C213.3336 730 211.6664 743.664 211 759C210.3336 774.336 210 788 210 800C210 812 210.3336 825.6664000000001 211 841C211.6664 856.3335999999999 213.3336 870 216 882L0 1040L186 1368L422 1260C443.3336 1277.3336 468 1294 496 1310C524 1326 550.6664 1338 576 1346L616 1600H984L1024 1348C1049.336 1338.6664 1076.336 1326.3336 1105 1311C1133.664 1295.6664 1158 1278.6664 1178 1260L1414 1368L1600 1040L1384 886C1386.6640000000002 872.6664 1388.3359999999998 858.3335999999999 1389 843C1389.664 827.6664 1390 813.3335999999999 1390 800C1390 786.664 1389.664 772.664 1389 758C1388.3359999999998 743.336 1386.6640000000002 729.336 1384 716L1600 560L1414 232L1178 340C1156.664 322.664 1132.336 305.6639999999998 1105 289C1077.664 272.336 1050.664 260 1024 252L984 0H616zM800 540C872 540 933.336 565.336 984 616C1034.664 666.664 1060 728 1060 800C1060 872 1034.664 933.3336 984 984C933.336 1034.6664 872 1060 800 1060C728 1060 666.6664000000001 1034.6664 616 984C565.3336 933.3336 540 872 540 800C540 728 565.3336 666.664 616 616C666.6664000000001 565.336 728 540 800 540z" />
    <glyph glyph-name="thumbs-down"
      unicode="&#xE014;"
      horiz-adv-x="1600" d="M1422.4414567687445 840C1422.4414567687445 773.728 1368.7214567687442 720 1302.4414567687445 720C1236.1694567687446 720 1182.4414567687445 773.728 1182.4414567687445 840V1320C1182.4414567687445 1386.2744 1236.1694567687446 1440 1302.4414567687445 1440C1368.7214567687442 1440 1422.4414567687445 1386.2744 1422.4414567687445 1320V840zM1102.4414567687445 826.6664000000001V1261.1144C1102.4414567687445 1321.7184 1068.2014567687445 1377.12 1014.0014567687446 1404.2232L1010.0094567687446 1406.2168C965.5774567687446 1428.4336 916.5774567687446 1440 866.9054567687446 1440L433.6126567687446 1440C357.3438567687446 1440 291.6774567687446 1386.1664 276.7198567687446 1311.3784L180.7198567687446 831.3783999999999C160.9190567687446 732.376 236.6454567687446 640 337.6126567687446 640H622.4446567687446V320C622.4446567687446 231.6319999999999 694.0790567687446 160 782.4414567687446 160C826.6254567687447 160 862.4414567687446 195.816 862.4414567687446 240V293.3359999999998C862.4414567687446 362.568 884.8974567687445 429.944 926.4414567687446 485.336L1038.4414567687445 634.664C1079.9854567687446 690.056 1102.4414567687445 757.432 1102.4414567687445 826.6664000000001z" />
    <glyph glyph-name="thumbs-up"
      unicode="&#xE015;"
      horiz-adv-x="1600" d="M177.5554857085504 760C177.5554857085504 826.2744 231.2810857085504 880 297.5554857085504 880C363.8298857085504 880 417.5554857085504 826.2744 417.5554857085504 760V280C417.5554857085504 213.7280000000001 363.8298857085504 160 297.5554857085504 160C231.2810857085504 160 177.5554857085504 213.7280000000001 177.5554857085504 280V760zM497.5554857085503 773.336V338.8879999999999C497.5554857085503 278.28 531.7954857085504 222.8800000000001 586.0010857085504 195.7759999999999L589.9890857085504 193.7840000000001C634.4226857085504 171.568 683.4186857085504 160 733.0970857085504 160H1166.3874857085505C1242.6594857085504 160 1308.3234857085504 213.8319999999999 1323.2834857085504 288.624L1419.2834857085504 768.6239999999999C1439.0834857085506 867.6279999999999 1363.3554857085505 960 1262.3874857085502 960H977.5554857085503V1280C977.5554857085503 1368.3656 905.9234857085502 1440 817.5554857085503 1440C773.3730857085504 1440 737.5554857085503 1404.1824 737.5554857085503 1360V1306.6664C737.5554857085503 1237.4279999999999 715.0986857085504 1170.0576 673.5554857085503 1114.6664L561.5554857085503 965.3336C520.0122857085503 909.9424 497.5554857085503 842.572 497.5554857085503 773.336z" />
    <glyph glyph-name="twitter-x"
      unicode="&#xE016;"
      horiz-adv-x="1600" d="M1260 1525H1505.4L969.3999999999997 910.8L1600 75H1106.3L719.5999999999999 582L277.0999999999999 75H31.6L604.9 732L0 1525H506.3L855.8 1061.7L1260.1000000000001 1525zM1174 222.2000000000001H1310L432.3000000000001 1385.5H286.5z" />
    <glyph glyph-name="twitter"
      unicode="&#xE017;"
      horiz-adv-x="1920" d="M1722.6440000000002 1191.0648C1723.8600000000001 1174.0095999999999 1723.8600000000001 1156.9512 1723.8600000000001 1139.896C1723.8600000000001 619.696 1327.924 20.3039999999999 604.268 20.3039999999999C381.3224 20.3039999999999 174.2176 84.8720000000001 0.004 196.952C31.68024 193.2960000000001 62.134 192.0799999999999 95.0288 192.0799999999999C278.9856000000001 192.0799999999999 448.3280000000001 254.2080000000001 583.5568000000001 360.2000000000001C410.5616 363.856 265.5864000000001 477.152 215.6368 633.096C240.004 629.44 264.368 627.008 289.9536 627.008C325.2824 627.008 360.6152000000001 631.88 393.5064 640.4000000000001C213.2024 676.952 77.97024 835.3288 77.97024 1026.5976V1031.4688C130.3536 1002.2296 191.2728 983.956 255.8368 981.5224C149.8464 1052.184 80.408 1172.7912000000001 80.408 1309.2384C80.408 1382.3336 99.8968 1449.3384 134.0104 1507.816C327.7168 1269.0352 618.8856 1113.0984 945.38 1096.04C939.292 1125.2784 935.636 1155.732 935.636 1186.1896000000002C935.636 1403.0448000000001 1111.0679999999998 1579.6924 1329.132 1579.6924C1442.4360000000001 1579.6924 1544.7640000000001 1532.17984 1616.6439999999998 1455.4288C1705.58 1472.484 1790.8600000000001 1505.3784 1866.3959999999995 1550.4536C1837.148 1459.0808 1775.02 1382.3296 1693.3960000000002 1333.6024C1772.5879999999997 1342.1264 1849.34 1364.06 1919.996 1394.5136C1866.404 1316.5472 1799.3960000000002 1247.1088 1722.6440000000002 1191.0648z" />
    <glyph glyph-name="youtube"
      unicode="&#xE018;"
      horiz-adv-x="1800" d="M1717.8125000000005 1212.1875C1698.1250000000005 1286.25 1640.3125000000005 1344.375 1566.8750000000002 1364.0625C1433.7500000000002 1400 900.0000000000001 1400 900.0000000000001 1400S366.2500000000001 1400 233.1250000000001 1364.0625C159.6875000000001 1344.375 101.8750000000001 1286.25 82.1875000000001 1212.1875C46.5625000000001 1078.125 46.5625000000001 798.7500000000001 46.5625000000001 798.7500000000001S46.5625000000001 519.3750000000002 82.1875000000001 385.3125C101.8750000000001 311.25 159.6875000000001 255.625 233.1250000000001 235.9375C366.2500000000001 200 900.0000000000001 200 900.0000000000001 200S1433.7500000000002 200 1566.8750000000002 235.9375C1640.3125000000002 255.625 1698.1250000000002 311.5625 1717.8125 385.3125C1753.4375 519.375 1753.4375 798.7500000000001 1753.4375 798.7500000000001S1753.4375 1078.125 1717.8125 1212.1875zM725.6250000000002 545V1052.5L1171.5625000000002 798.7500000000001L725.6250000000002 545z" />
  </font>
</defs>
</svg>
